Navigation
/ / CreativeLive - Fine Art Womens Portraits with Jennifer Hudson

CreativeLive - Fine Art Womens Portraits with Jennifer Hudson

CreativeLive - Fine Art Womens PortraitsWEBRip | English | FLV | 854 x 480 | AVC ~928 kbps | AAC ~64 Kbps | 44.1 KHz | 1 channel | 10:06:59 | 4.02 GBGenre: eLearning Video / Adobe Photoshop, Photographing
Are you ready to delve into the magical world of fine art photography? Join innovative and award-winning photographer Jennifer Hudson for a two-day immersion into everything you need to know to conceptualize, style, and shoot photographs that double as works of art.Jennifer will share her unique method for turning a natural setting into a fine art studio, including her one-of-a-kind-technique for creating water portraits. You’ll master the essential principles of posing, lighting, styling, and costuming. Jennifer will also cover working effectively with models, communicating your personal vision, and using Photoshop to add a fine-art-style polish to images.

By the end of this course, you’ll be inspired and empowered to bring a new level of artistry to your photographs.

Day 1 Pre-Show
9:00 am - Influences and Inspiration
9:45 am - Composition and Posing Process
11:00 am - Posing Methods and Q&A
12:30 pm - Shoot: Outdoor Figure Studies - Canopy Part 1
1:15 pm - Shoot: Outdoor Figure Studies - Canopy Part 2
2:00 pm - Shoot: Forest Scene and Props Part 1
2:30 pm - Shoot: Forest Scene and Props Part 2
Day 1 Wrap-Up

Day 2 Pre-Show
9:00 am - Creating Couture Garments and Stylized Session
9:30 am - Shoot: Couture Gown in Forest Scene
10:00 am - Shoot: Couture Bridal Gown in Tree
11:00 am - Shoot: Water Sessions First Model
11:30 am - Shoot: Water Sessions Second Model
11:45 am - Shoot: Water Sessions Third Model
1:00 pm - Shoot: Outdoor Drop Cloths and Chair Pose One
1:30 pm - Shoot: Chair Pose and Two Models Together
2:00 pm - Shoot: Posing Two Models with Antlers
Thanks + Credits
2:45 pm - Digital Finishing Techniques in Photoshop
Day 2 Wrap-Up

Jennifer Hudson

Jennifer B Thoreson is a young visual artist creating staged imagery that is both artistically stylized and meticulously crafted. Drawing inspirations from themes of faith and the intricacy of personal relationships, Jennifer is a dynamic and emotional illustrator of the human heart. The work is soulful, seeking the use of the forgotten or discarded, heavily symbolic, eerie and quiet. She references her faith and spirituality to bring insight and awareness, using heartfelt, acutely mapped personal experiences.

Jennifer holds an MFA from the University of New Mexico. She is an international speaker and lecturer whose programs are sought after year after year by many professional public and private photographic organizations. Jennifer published her first monograph, Medic, in 2012. She has just completed her latest major body of work entitled Testament, a series of twelve images exploring love relationships and heavy burdens they sustain. Jennifer’s work has been a part of more than 30 exhibitions, has been widely published internationally in many print and online journals, and is represented by three major galleries across the United States.

More Info:
homepage

also You can look my other last:
Photography-posts


MediaInfo: General
Complete name : Jennifer Hudson - Fine Art Women's Portraits - Day 1.flv
Format : Flash Video
File size : 2.23 GiB
Duration : 5h 12mn
Overall bit rate : 1 022 Kbps
Tagging application : Moyea FLV Lib

Video
Format : AVC
Format/Info : Advanced Video Codec
Format profile : [email protected]
Format settings, CABAC : Yes
Format settings, ReFrames : 1 frame
Codec ID : 7
Duration : 5h 12mn
Bit rate : 928 Kbps
Width : 854 pixels
Height : 480 pixels
Display aspect ratio : 16:9
Frame rate mode : Constant
Frame rate : 30.000 fps
Color space : YUV
Chroma subsampling : 4:2:0
Bit depth : 8 bits
Scan type : Progressive
Bits/(Pixel*Frame) : 0.075
Stream size : 2.03 GiB (91%)

Audio
Format : AAC
Format/Info : Advanced Audio Codec
Format profile : LC
Codec ID : 10
Duration : 5h 12mn
Bit rate : 64.0 Kbps
Channel(s) : 2 channels
Channel(s)_Original : 1 channel
Channel positions : Front: C
Sampling rate : 44.1 KHz
Frame rate : 43.066 fps (1024 spf)
Compression mode : Lossy
Stream size : 143 MiB (6%)
Screenshots




Exclusive eLearning Videos ← add to bookmarks
DOWNLOAD

http://nitroflare.com/view/CC153699D7570C2/creativeLIVE.Fine.Art.Womens.Portraits.part1.rar

http://nitroflare.com/view/CE6AD6E2EAA7A28/creativeLIVE.Fine.Art.Womens.Portraits.part2.rar

http://nitroflare.com/view/E32AD2CA0AAAE73/creativeLIVE.Fine.Art.Womens.Portraits.part3.rar

http://nitroflare.com/view/7FA6D8108557B29/creativeLIVE.Fine.Art.Womens.Portraits.part4.rar

http://nitroflare.com/view/8AD147309A4D2B3/creativeLIVE.Fine.Art.Womens.Portraits.part5.rar

http://nitroflare.com/view/770BE83E7BD0BE4/creativeLIVE.Fine.Art.Womens.Portraits.part6.rar

CreativeLive - Fine Art Womens Portraits with Jennifer Hudson

Related books

Shooting Awesome Sports Portraits

Live cloud

This week top files