Navigation
/ / Winter is Coming Environment pack Tyler Edlin

Winter is Coming Environment pack Tyler Edlin

Winter is Coming Environment pack Tyler EdlinWEBRip | English | MP4 + Project files | 1280 x 720 | AVC ~3399 kbps | 30 fps
AAC ~125 Kbps | 44.1 KHz | 2 channels | 02:18:01 | 1.34 GBGenre: eLearning Video / Painting, Adobe Photoshop
I paint two complete scenes with two different approaches. In the first part I'll use photo manipulation and paintovers, in the second part I paint from scratch. Ill cover layering, brush techniques, and lighting while using reference. Also show a few style alterations of these scenes.Includes:

- 2hr 12m video tutorial
- 3 psd files
- brushes used
- reference images used
- complimentary time lapse video of warm up painting


also You can look my other last:
Photography-posts


MediaInfo: General
Complete name : Complimentary Inspiration.mp4
Format : MPEG-4
Codec ID : M4V (M4V /mp42/isom)
File size : 160 MiB
Duration : 6mn 19s
Overall bit rate mode : Variable
Overall bit rate : 3 531 Kbps
Encoded date : UTC 2014-07-25 13:51:50
Tagged date : UTC 2014-07-25 13:51:50

Video
ID : 2
Format : AVC
Format/Info : Advanced Video Codec
Format profile : [email protected]
Format settings, CABAC : No
Format settings, ReFrames : 3 frames
Format settings, GOP : M=1, N=24
Codec ID : avc1
Codec ID/Info : Advanced Video Coding
Duration : 6mn 19s
Bit rate : 3 399 Kbps
Width : 1 280 pixels
Height : 720 pixels
Display aspect ratio : 16:9
Frame rate mode : Constant
Frame rate : 30.000 fps
Standard : NTSC
Color space : YUV
Chroma subsampling : 4:2:0
Bit depth : 8 bits
Scan type : Progressive
Bits/(Pixel*Frame) : 0.123
Stream size : 154 MiB (96%)
Language : English
Encoded date : UTC 2014-07-25 13:51:51
Tagged date : UTC 2014-07-25 13:51:51
Color range : Limited

Audio
ID : 1
Format : AAC
Format/Info : Advanced Audio Codec
Format profile : LC
Codec ID : 40
Duration : 6mn 19s
Source duration : 6mn 19s
Bit rate mode : Variable
Bit rate : 125 Kbps
Maximum bit rate : 259 Kbps
Channel(s) : 2 channels
Channel positions : Front: L R
Sampling rate : 44.1 KHz
Frame rate : 43.066 fps (1024 spf)
Compression mode : Lossy
Stream size : 5.66 MiB (4%)
Source stream size : 5.66 MiB (4%)
Language : English
Encoded date : UTC 2014-07-25 13:51:51
Tagged date : UTC 2014-07-25 13:51:51
Screenshots





Exclusive eLearning Videos ← add to bookmarks
DOWNLOAD

http://nitroflare.com/view/3629606F8DF99BF/Gumroad.Winter.is.Coming.Environment.part1.rar

http://nitroflare.com/view/73A814CB8A4D6A6/Gumroad.Winter.is.Coming.Environment.part2.rar

http://nitroflare.com/view/189819D991A48EE/Gumroad.Winter.is.Coming.Environment.part3.rar

http://nitroflare.com/view/BE63AA658EE3744/Gumroad.Winter.is.Coming.Environment.part4.rar

http://nitroflare.com/view/B4A23AF018947B0/Gumroad.Winter.is.Coming.Environment.part5.rar

http://nitroflare.com/view/B889532D6821EAF/Gumroad.Winter.is.Coming.Environment.part6.rar

http://nitroflare.com/view/A575DBC904C3662/Gumroad.Winter.is.Coming.Environment.part7.rar

Winter is Coming Environment pack Tyler Edlin

Related books

Lynda: The Art of Video Interviews

Tutsplus - Advanced C# (2014)