Navigation
/ / Moog Sub 37 101: Master the Moog (2016)

Moog Sub 37 101: Master the Moog (2016)

Moog Sub 37 101: Master the MoogWEBRip | English | MP4 | 1280 x 720 | AVC ~619 kbps | 30 fps
AAC | 96 Kbps | 44.1 KHz | 2 channels | 01:56:00 | 635.2 MBGenre: Video Tutorial / Sound Processing
The Moog Sub 37, built on the Sub Phatty sound engine, is a powerful synth. Learn every detail of this gritty little Moog as explained by keyboardist and trainer Matt Vanacoro. It’s your Sub 37 video user manual! This course starts at the very beginning, helping you get set up, plugged in and configured! Once the basics are covered, Matt begins to explore the presets and shows you how to tweak them to create and store some original, new sounds.From there, you dive into full-blown synthesis as Matt explains the oscillators, the classic Moog filters, the mixer, the amp envelope and everything in-between. Next, you see how to modulate, arpeggiate, automate and get into some deep sound design as Matt creates some soaring leads and bottom-shaking bass.
So if you’re into synthesis, this course is for you. If want to learn how the the Moog Sub 37 works, you’ll find that this course is the ultimate Sub 37 user's guide. So dive in and learn how to master that Moog sound in this collection of 39 step-by-step video tutorials by Matt Vanacoro!

Content:
01 Introduction & Rundown (02:00)
02 Ins & Outs (02:10)
03 Starting Up & Configuration (04:52)
04 Volume, Headphones & USB (01:19)
05 Bank & Presets (02:00)
06 Category Lock (01:30)
07 Saving a Preset (02:34)
08 Comparing Presets (02:15)
09 Preset vs. Panel Mode (02:05)
10 Arpeggiator Intro (02:12)
11 Glide (04:12)
12 The Default Preset (02:37)
13 Oscillator Options (04:13)
14 Sound Source Mixer (03:16)
15 Oscillator Sync & KB Reset (01:47)
16 Subtractive Synthesis (02:03)
17 Filter Cutoff & Resonance (02:49)
18 Slope & Keyboard Tracking (04:00)
19 Amplifier Envelope (04:00)
20 Amp Envelope Triggering (03:21)
21 Amp Envelope Alt. Controls (03:32)
22 Filter Envelope (04:39)
23 Modulation Overview (01:15)
24 Modulating Pitch & Filter (03:53)
25 Modulating Other Parameters (03:37)
26 LFO Options (04:34)
27 Assigning Controls to a Modulation Bus (05:08)
28 Modulating With Pedals (03:08)
29 Arpeggiator In-depth (04:13)
30 Recording a Step Sequence (02:21)
31 Step Edit Mode (02:53)
32 Rotating the Pattern (01:51)
33 Using Multiple Pages (02:13)
34 Bottom-Shaking Basses (03:12)
35 Soaring Leads (03:42)
36 Duophonic Inversion & Pads (03:15)
37 Filtering Live Audio (03:12)
38 MIDI Menu Options (01:21)
39 Final Tips & Thoughts (02:01)

also You can look my other last:
Sound Processing-posts


MediaInfo: General
Complete name : 10. Arpeggiator Intro.mp4
Format : MPEG-4
Format profile : Base Media / Version 2
Codec ID : mp42 (mp42/isom/avc1)
File size : 11.4 MiB
Duration : 2mn 12s
Overall bit rate : 722 Kbps
Encoded date : UTC 2016-01-18 13:05:59
Tagged date : UTC 2016-01-18 21:05:59
Writing application : Sorenson Squeeze
Comment : Encoded by

Video
ID : 2
Format : AVC
Format/Info : Advanced Video Codec
Format profile : [email protected]
Format settings, CABAC : Yes
Format settings, ReFrames : 4 frames
Codec ID : avc1
Codec ID/Info : Advanced Video Coding
Duration : 2mn 12s
Bit rate : 619 Kbps
Width : 1 280 pixels
Height : 720 pixels
Display aspect ratio : 16:9
Frame rate mode : Constant
Frame rate : 30.000 fps
Color space : YUV
Chroma subsampling : 4:2:0
Bit depth : 8 bits
Scan type : Progressive
Bits/(Pixel*Frame) : 0.022
Stream size : 9.77 MiB (86%)
Writing library : x264 core 129
Encoding settings : cabac=1 / ref=3 / deblock=1:0:0 / analyse=0x1:0x111 / me=hex / subme=7 / psy=1 / psy_rd=1.00:0.00 / mixed_ref=1 / me_range=16 / chroma_me=1 / trellis=1 / 8x8dct=0 / cqm=0 / deadzone=21,11 / fast_pskip=1 / chroma_qp_offset=-2 / threads=18 / lookahead_threads=3 / sliced_threads=0 / nr=0 / decimate=1 / interlaced=0 / bluray_compat=0 / constrained_intra=0 / bframes=3 / b_pyramid=2 / b_adapt=1 / b_bias=0 / direct=1 / weightb=1 / open_gop=0 / weightp=2 / keyint=300 / keyint_min=30 / scenecut=45 / intra_refresh=0 / rc_lookahead=40 / rc=crf / mbtree=1 / crf=23.0 / qcomp=0.60 / qpmin=0 / qpmax=69 / qpstep=4 / ip_ratio=1.40 / aq=1:1.00
Encoded date : UTC 2016-01-18 13:05:59
Tagged date : UTC 2016-01-18 13:05:59

Audio
ID : 1
Format : AAC
Format/Info : Advanced Audio Codec
Format profile : LC
Codec ID : 40
Duration : 2mn 11s
Bit rate mode : Constant
Bit rate : 96.0 Kbps
Channel(s) : 2 channels
Channel positions : Front: L R
Sampling rate : 44.1 KHz
Frame rate : 43.066 fps (1024 spf)
Compression mode : Lossy
Stream size : 1.50 MiB (13%)
Encoded date : UTC 2016-01-18 13:05:59
Tagged date : UTC 2016-01-18 13:05:59

Other #1
ID : 3
Type : Scene description
Format : System Core
Codec ID : 2
Duration : 2mn 12s
Encoded date : UTC 2016-01-18 13:05:59
Tagged date : UTC 2016-01-18 13:05:59

Other #2
ID : 4
Type : Object description
Format : System
Codec ID : 1
Duration : 2mn 12s
Encoded date : UTC 2016-01-18 13:05:59
Tagged date : UTC 2016-01-18 13:05:59
Screenshots



For more Exclusive material, Visit my
Download:

http://nitroflare.com/view/937FE6BFF797A93/Moog.Sub.37.101.Master.the.Moog.part1.rar

http://nitroflare.com/view/8FA12773379EC85/Moog.Sub.37.101.Master.the.Moog.part2.rar

http://nitroflare.com/view/CB5377FEB9E420A/Moog.Sub.37.101.Master.the.Moog.part3.rar

http://nitroflare.com/view/D14078955CAB5D2/Moog.Sub.37.101.Master.the.Moog.part4.rar

http://nitroflare.com/view/2F162A76B976D2D/Moog.Sub.37.101.Master.the.Moog.part5.rar

http://nitroflare.com/view/E032D31400AE113/Moog.Sub.37.101.Master.the.Moog.part6.rar

http://nitroflare.com/view/EAFAC68FFE1D1CD/Moog.Sub.37.101.Master.the.Moog.part7.rar

Moog Sub 37 101: Master the Moog (2016)

Related books

Live 9 409: Remixing Froya (2016)

Udemy: AJAX Development (2015)