Navigation
/ / World Rock Guitar with Tony Smotherman's (2015)

World Rock Guitar with Tony Smotherman's (2015)

World Rock Guitar with Tony Smotherman's (2015)(.mp4) in an interactive shell | English | MP4 + MP3 jam tracks + PDF tabs | 864 x 486 | AVC ~966 Kbps | 29.970 fps
AAC | 128 Kbps | 48.0 KHz | 2 channels | 169 minutes | 1.6 GBGenre: eLearning Video / Guitar lesson
Rock is a universal musical language that is embraced by almost every culture in the world. At the same time, every culture has their own musical identity and traditions, rich in history and flavored with unique musical characteristics. Many contemporary rock, jazz and blues musicians infuse international flavors into their own music to craft fresh and intriguing solos and improvisations.Tony Smotherman’s World Rock Guitar, is your passport and express ticket to being able to flavor and distinguish your own solos and improvisations with 10 internationally influenced guitar stylings.

“There’s a wealth of unusual chord progressions, exotic scales, and melodic approaches that lie within music from around the world. The guitar is the only instrument that's capable of emulating a multitude of other instruments, even replicating un-fretted or non-stringed instruments. All it takes is an open mind and an open ear!”

Tony will guide your fretboard journey around the globe from the uplifting and devotional sounds of the Congo, to the expressive and harmonic qualities of Indian music, to the Zen sounds of Japan.

“In World Rock Guitar, we’re going to explore the music of 10 different cultures and focus on some of their unique musical characteristics. We’ll then translate those characteristics to the guitar, sometimes emulating different instruments that might be synonymous with a particular culture.”"

You’ll play your way through 10 sets of lessons, each set focusing on how to emulate the harmonic qualities, embellishments and expressive techniques of a particular culture’s music, and then infuse those qualities into your modern rock solos, compositions and improvisations: African Rain, Japanese Meditations, Scotland Yard, Irish Gig, Turkish Sands, Soul Of India, Gypsy Magic, Lebanese Warrior, Greek Tears and Spanish Matador.

Each set of lessons includes an overview of the culture’s distinctive musical qualities, a traditional Performance Study and then an interpretive Performance Study in a Modern Rock setting, followed by detailed breakdowns for each Performance Study.

Tony demonstrates over rhythm tracks and then breaks it all down by stepping you through the key concepts, techniques and creative approaches that he used to perform the solos in the Performance Studies. All of the performances are tabbed and notated for your practice, reference and study purposes.

You’ll also get Guitar Pro files so that you can loop and/or slow any section down as you work through the lessons. Plus, Tony generously includes all of the rhythm tracks for you to work with on your own.

Table of Contents
62 Total Video Lessons

World Rock Guitar
African Rain: 1
African Rain: 1
African Rain: 1
African Rain: 2
African Rain: 2
African Rain: 2
Japanese Meditations: 1
Japanese Meditations: 1
Japanese Meditations: 1
Japanese Meditations: 2
Japanese Meditations: 2
Japanese Meditations: 2
Scotland Yard: 1
Scotland Yard: 1
Scotland Yard: 1
Scotland Yard: 2
Scotland Yard: 2
Scotland Yard: 2
Irish Gig: 1
Irish Gig: 1
Irish Gig: 1
Irish Gig: 2
Irish Gig: 2
Irish Gig: 2
Turkish Sands: 1
Turkish Sands: 1
Turkish Sands: 1
Turkish Sands: 2
Turkish Sands: 2
Turkish Sands: 2
Soul Of India: 1
Soul Of India: 1
Soul Of India: 1
Soul Of India: 2
Soul Of India: 2
Soul Of India: 2
Gypsy Magic: 1
Gypsy Magic: 1
Gypsy Magic: 1
Gypsy Magic: 2
Gypsy Magic: 2
Gypsy Magic: 2
Lebanese Warrior: 1
Lebanese Warrior: 1
Lebanese Warrior: 1
Lebanese Warrior: 2
Lebanese Warrior: 2
Lebanese Warrior: 2
Greek Tears: 1
Greek Tears: 1
Greek Tears: 1
Greek Tears: 2
Greek Tears: 2
Greek Tears: 2
Spanish Matador: 1
Spanish

also You can look my other last:
Guitar Lessons-posts


MediaInfo: General
Complete name : tswrg-002.mp4
Format : MPEG-4
Format profile : Base Media
Codec ID : isom
File size : 18.8 MiB
Duration : 2mn 23s
Overall bit rate : 1 102 Kbps
Writing application : Lavf55.16.102

Video
ID : 1
Format : AVC
Format/Info : Advanced Video Codec
Format profile : Main@L3.1
Format settings, CABAC : Yes
Format settings, ReFrames : 5 frames
Format settings, GOP : M=3, N=24
Codec ID : avc1
Codec ID/Info : Advanced Video Coding
Duration : 2mn 23s
Bit rate : 966 Kbps
Width : 864 pixels
Height : 486 pixels
Display aspect ratio : 16:9
Frame rate mode : Constant
Frame rate : 29.970 fps
Standard : NTSC
Color space : YUV
Chroma subsampling : 4:2:0
Bit depth : 8 bits
Scan type : Progressive
Bits/(Pixel*Frame) : 0.077
Stream size : 16.5 MiB (88%)
Language : English

Audio
ID : 2
Format : AAC
Format/Info : Advanced Audio Codec
Format profile : LC
Codec ID : 40
Duration : 2mn 22s
Bit rate mode : Constant
Bit rate : 128 Kbps
Channel(s) : 2 channels
Channel positions : Front: L R
Sampling rate : 48.0 KHz
Compression mode : Lossy
Stream size : 2.18 MiB (12%)
Language : English Screenshots



For more Exclusive material, Visit my
Download
http://www.nitroflare.com/view/EAC3676EC9A07D1/TrueFire.World.Rock.Guitar.Tony.Smotherman.part1.rar

http://www.nitroflare.com/view/E6447CFF27B16FA/TrueFire.World.Rock.Guitar.Tony.Smotherman.part2.rar

http://www.nitroflare.com/view/9C7FC9182F6F163/TrueFire.World.Rock.Guitar.Tony.Smotherman.part3.rar

http://www.nitroflare.com/view/0B8B6F47D07E44F/TrueFire.World.Rock.Guitar.Tony.Smotherman.part4.rar

http://www.nitroflare.com/view/738E61C724078F4/TrueFire.World.Rock.Guitar.Tony.Smotherman.part5.rar

http://www.nitroflare.com/view/97F1C513FD9E4D4/TrueFire.World.Rock.Guitar.Tony.Smotherman.part6.rar

World Rock Guitar with Tony Smotherman's (2015)

Related books

Rock Guitar For Dummies (repost)

Live cloud

This week top files