Navigation
/ / The Male Ballet Dancer

The Male Ballet Dancer

The Male Ballet Dancer
DVDRip | English | AVI | 640 x 480 | H264 ~503 kbps | 29.970 fps
AC-3 128 Kbps 48.0 KHz | 2 channels | 01:13:52 | 339.7 MB
Genre: eLearning Video / Ballet, Classical Dance
Get ready for a jaw-dropping, eye-popping experience as you watch Gold-Silver-Bronze Medalist Joseph Michael Gatti perform the variations from Black Swan and Le Corsaire and then show "How It's Done" with Finis Jhung. Here is a thrilling display of the male bravura technique - all the virtuoso steps that stop the show and make audiences stand and cheer. Joe's ability to turn is uncanny - he finishes most all his turns, including 9 pirouettes - on demi-pointe.His air turns are big and juicy, and his "trick" jumps are electrifying. Movement-by-movement, Finis and Joe go through all the steps and break down the preparations and main ideas. To help you better understand the mechanics of turns and jumps, Finis uses his teaching toys. This video is a Winner!

A master class - spectacular dancing, plus a detailed analysis of male bravura technique.

also you can watch:



MediaInfo: General
Complete name : The Male Ballet Dancer.avi
Format : AVI
Format/Info : Audio Video Interleave
File size : 340 MiB
Duration : 1h 13mn
Overall bit rate : 643 Kbps
Writing application : Lavf57.25.100
Writing library : VirtualDub build 35576/release

Video
ID : 0
Format : AVC
Format/Info : Advanced Video Codec
Format profile : [email protected]
Format settings, CABAC : Yes
Format settings, ReFrames : 4 frames
Codec ID : H264
Duration : 1h 13mn
Bit rate : 503 Kbps
Width : 640 pixels
Height : 480 pixels
Display aspect ratio : 4:3
Frame rate : 29.970 (30000/1001) fps
Color space : YUV
Chroma subsampling : 4:2:0
Bit depth : 8 bits
Scan type : Progressive
Bits/(Pixel*Frame) : 0.055
Stream size : 266 MiB (78%)
Writing library : x264 core 146 r2538bm 121396c
Encoding settings : cabac=1 / ref=3 / deblock=1:0:0 / analyse=0x3:0x113 / me=hex / subme=7 / psy=1 / psy_rd=1.00:0.00 / mixed_ref=1 / me_range=16 / chroma_me=1 / trellis=1 / 8x8dct=1 / cqm=0 / deadzone=21,11 / fast_pskip=1 / chroma_qp_offset=-2 / threads=12 / lookahead_threads=2 / sliced_threads=0 / nr=0 / decimate=1 / interlaced=0 / bluray_compat=0 / constrained_intra=0 / bframes=3 / b_pyramid=2 / b_adapt=1 / b_bias=0 / direct=1 / weightb=1 / open_gop=0 / weightp=2 / keyint=250 / keyint_min=25 / scenecut=40 / intra_refresh=0 / rc_lookahead=40 / rc=crf / mbtree=1 / crf=23.0 / qcomp=0.60 / qpmin=0 / qpmax=69 / qpstep=4 / ip_ratio=1.40 / aq=1:1.00

Audio
ID : 1
Format : AC-3
Format/Info : Audio Coding 3
Mode extension : CM (complete main)
Format settings, Endianness : Big
Codec ID : 2000
Duration : 1h 13mn
Bit rate mode : Constant
Bit rate : 128 Kbps
Channel(s) : 2 channels
Channel positions : Front: L R
Sampling rate : 48.0 KHz
Frame rate : 31.250 fps (1536 spf)
Compression mode : Lossy
Stream size : 67.6 MiB (20%)
Alignment : Aligned on interleaves
Interleave, duration : 33 ms (1.00 video frame)
Interleave, preload duration : 512 ms Screenshots



Exclusive eLearning Videos ← add to bookmarks
DOWNLOAD

http://nitroflare.com/view/94DA75E00F15517/The.Male.Ballet.Dancer.part1.rar

http://nitroflare.com/view/3B9AC83112E384B/The.Male.Ballet.Dancer.part2.rar

http://nitroflare.com/view/3506A7CFB736530/The.Male.Ballet.Dancer.part3.rar

http://nitroflare.com/view/A4FD2B38CC6A3A1/The.Male.Ballet.Dancer.part4.rar

The Male Ballet Dancer

Related books

u-he ACE Any Cable Everywhere

Victor Estima - Inverted Triangle

Chasses Au Pigeon

Udemy: AJAX Development (2015)

Lust - David Tian