Navigation
/ / Workshop of Charles Neil - Finishing A to Z Part-10 - Special Finishing Techniques

Workshop of Charles Neil - Finishing A to Z Part-10 - Special Finishing Techniques

Workshop of Charles Neil - Finishing A to Z Part-10 - Special Finishing TechniquesDVDRip | English | AVI | 640 x 464 | XviD ~1927 Kbps | 29.970 fps
MP3 | 128 Kbps | 48.0 KHz | 2 channel | 01:07:30 | 997.9 MBGenre: eLearning Video / Woodworking
“An exception to every rule”. So says professional woodworker Charles Neil. In this video Charles goes over some special finishing techniques, such as grain filling, pour on finishes, and other tips for those special situations where an ordinary finsih won’t do.Look also other Woodworking and Home Repairs Videos:

and my other last:
Woodworking-posts

MediaInfo: General
Complete name : Special Finishing Techniques.avi
Format : AVI
Format/Info : Audio Video Interleave
File size : 998 MiB
Duration : 1h 7mn
Overall bit rate : 2 067 Kbps
Writing application : FairUse Wizard -
Writing library : The best and REALLY easy backup tool

Video
ID : 0
Format : MPEG-4 Visual
Format profile : Advanced [email protected]
Format settings, BVOP : 1
Format settings, QPel : No
Format settings, GMC : No warppoints
Format settings, Matrix : Default (MPEG)
Muxing mode : Packed bitstream
Codec ID : XVID
Codec ID/Hint : XviD
Duration : 1h 7mn
Bit rate : 1 927 Kbps
Width : 640 pixels
Height : 464 pixels
Display aspect ratio : 1.379
Frame rate : 29.970 (30000/1001) fps
Color space : YUV
Chroma subsampling : 4:2:0
Bit depth : 8 bits
Scan type : Progressive
Compression mode : Lossy
Bits/(Pixel*Frame) : 0.217
Stream size : 930 MiB (93%)
Writing library : XviD 1.2.0.dev47 (UTC 2006-11-01)

Audio
ID : 1
Format : MPEG Audio
Format version : Version 1
Format profile : Layer 3
Mode : Joint stereo
Codec ID : 55
Codec ID/Hint : MP3
Duration : 1h 7mn
Bit rate mode : Constant
Bit rate : 128 Kbps
Channel(s) : 2 channels
Sampling rate : 48.0 KHz
Compression mode : Lossy
Stream size : 61.8 MiB (6%)
Alignment : Aligned on interleaves
Interleave, duration : 33 ms (1.00 video frame)
Interleave, preload duration : 504 ms
Writing library : LAME3.97
Encoding settings : -m j -V 4 -q 2 -lowpass 17 -b 128 Screenshots





Exclusive eLearning Videos ← add to bookmarks
Download:

http://nitroflare.com/view/F5FD5543A7FBB6F/Special.Finishing.Techniques.part1.rar

http://nitroflare.com/view/FE96CC449A31DAF/Special.Finishing.Techniques.part2.rar

http://nitroflare.com/view/248B56C63F8B159/Special.Finishing.Techniques.part3.rar

http://nitroflare.com/view/EDD290271E1C0FE/Special.Finishing.Techniques.part4.rar

http://nitroflare.com/view/CCBC8C8D5CEA68B/Special.Finishing.Techniques.part5.rar

Workshop of Charles Neil - Finishing A to Z Part-10 - Special Finishing Techniques

Related books