Navigation
/ / tutsplus - Laravel Essentials

tutsplus - Laravel Essentials

tutsplus - Laravel Essentials
English | MP4 | 1280x720 | AVC 948 Kbps 24.000 fps | AAC 192 Kbps 48.0 khz | 4.4 hours | 706 MB
Genre: Video Training
Laravel has taken the PHP community by storm, with its incredibly expressive syntax, the most powerful Active-Record implementation available, a robust command line tool, and much more. Join me, as I dig into the framework, and demonstrate how to build web applications with ease! Content: Welcome 40s
Welcome to Laravel Essentials 40s

Getting Started 28m 39s
Hello Laravel 4m 59s
Configuration Options and the Database 4m 31s
Your First Route and View 6m 10s
Allow Overrides 3m 45s
External Learning Resources 4m 26s
Passing Variables to Views 4m 48s

Blade 12m 8s
Blade 101 5m 47s
Blade 201: Layouts 6m 21s

Database Access 49m 20s
Raw Queries 7m 39s
Fluent Query Builder 9m 35s
Laravel's ORM: Eloquent 14m 22s
Version Control with Migrations 11m 45s
Generators 5m 59s

Hands-On Project: URL Shortener 48m 49s
Setup and the Form 9m 42s
Query the Database for URLs 12m 15s
Shortening New URLs 9m 43s
Validation 9m 13s
Bonus: Styling 7m 56s

Controllers 38m 6s
Registering Controllers 6m 47s
Restful Controllers 7m 43s
Defining REST 10m 52s
Named Routes 10m 13s
Nested Controllers 2m 31s

Authentication 14m 37s
Authentication 101 14m 37s

Eloquent 201 17m 44s
Eloquent Relationships 9m 57s
Eager Loading 7m 47s

Hands-On Project: Snippets 45m 43s
Pagoda Box 4m 15s
Creating and Displaying Snippets 11m 56s
Textarea Tabs and Displaying Snippets 5m 29s
Forking a Snippet 4m 34s
Styling With Twitter Bootstrap 8m 56s
Pushing to Pagoda Box 5m 32s
Adding Features With Git 5m 1s

Appendix 10m 23s
Workflow Tools 10m 23s
MediaInfo: General
Complete name : 01-Laravel-Course-Introduction.mp4
Format : MPEG-4
Format profile : Base Media / Version 2
Codec ID : mp42
File size : 5.48 MiB
Duration : 40s 208ms
Overall bit rate mode : Variable
Overall bit rate : 1 143 Kbps
Encoded date : UTC 2012-06-21 19:52:38
Tagged date : UTC 2012-06-21 19:52:38
©TIM : 00:00:00:00
©TSC : 24
©TSZ : 1

Video
ID : 1
Format : AVC
Format/Info : Advanced Video Codec
Format profile : [email protected]
Format settings, CABAC : Yes
Format settings, ReFrames : 3 frames
Format settings, GOP : M=4, N=33
Codec ID : avc1
Codec ID/Info : Advanced Video Coding
Duration : 40s 208ms
Bit rate : 948 Kbps
Width : 1 280 pixels
Height : 720 pixels
Display aspect ratio : 16:9
Frame rate mode : Constant
Frame rate : 24.000 fps
Standard : NTSC
Color space : YUV
Chroma subsampling : 4:2:0
Bit depth : 8 bits
Scan type : Progressive
Bits/(Pixel*Frame) : 0.043
Stream size : 4.55 MiB (83%)
Language : English
Encoded date : UTC 2012-06-21 19:52:38
Tagged date : UTC 2012-06-21 19:52:38

Audio
ID : 2
Format : AAC
Format/Info : Advanced Audio Codec
Format profile : LC
Codec ID : 40
Duration : 40s 208ms
Source duration : 40s 256ms
Bit rate mode : Variable
Bit rate : 192 Kbps
Maximum bit rate : 276 Kbps
Channel(s) : 2 channels
Channel positions : Front: L R
Sampling rate : 48.0 KHz
Compression mode : Lossy
Stream size : 930 KiB (17%)
Source stream size : 931 KiB (17%)
Language : English
Encoded date : UTC 2012-06-21 19:52:38
Tagged date : UTC 2012-06-21 19:52:38
Screenshots



.

no password
Download:

uploaded.net

Laravel Essentials.part3.rar

Laravel Essentials.part1.rar

Laravel Essentials.part2.rar

tutsplus - Laravel Essentials

Related books

Lynda: The Art of Video Interviews

Udemy: AJAX Development (2015)

Tutsplus - Advanced C# (2014)

AngularJS JumpStart with Dan Wahlin

Live cloud

This week top files