Navigation
/ / Udemy: Learn Wi-fi Hacking/Penetration Testing From Scratch

Udemy: Learn Wi-fi Hacking/Penetration Testing From Scratch

Udemy: Learn Wi-fi Hacking/Penetration Testing From ScratchEnglish | MP4 | 640 x 360 | AVC ~131 kbps | 20 fps
AAC | 61 Kbps | 44.1 KHz | 2 channels | ~5 hours | 302.6 MBGenre: Video Tutorial
In this course you will start as a beginner with no previous knowledge about penetration testing. The course is structured in a way that will take you through the basics of networking and how clients communicate with each other, then we will start talking about how we can exploit this method of communication to carry out a number of powerful attacks.This course is focuses on the practical side of wireless penetration testing without neglecting the theory behind each attack, ll the attacks explained in this course are launched against real devices in my lap

The Course is Divided into three main sections:

Pre-connection: in this section we still don't know much about penetration testing , all we have is a computer and a wireless card connected to it, you will learn how to start gathering information using your wi-fi card and you will learn a number of attacks that you can launch without the need to know the password such as controlling all the connections around you (ie: deny/allow any device from connecting to any network), you will also learn how to create a fake access point to attract users to connect to it and sniff any important information they enter.
Gaining Access: Now that you have gathered information about all the networks around you, and found your target, you will learn how to crack the key that the target uses. In this section you will learn a number of methods to crack WEP/WPA/WPA2 encryption.
Post Connection: Now you have the key to your target network and you can connect to it. in this section you will learn a number of very powerful attacks that you can launch against the network and the connected clients, these attacks will allow you to gain access to any account accessed by any client connected to your network, read all the traffic used by these clients (images , videos , audio passwords …etc), and gain full access to any client in your network . After that you will learn how to detect these attacks and protect yourself and your network against them.
All the attacks in this course are practical attacks that work against any wireless enabled device , ie: it does not matter if the device is a phone , tablet laptop …etc. Each attack is explained in a simple way first so that you understand how it actually works, so first you will learn the theory behind each attack and then you will learn how to carry out the attack using Kali Linux.

Contents:
Section 1 Introduction and Network Basics

Section 2 Pre-Connection Attacks

Section 3 Gaining Access

Section 4 Post Connection Attacks

More info:
homepage

MediaInfo: General
Complete name : 14 Theory Behind Cracking WEP.MP4
Format : MPEG-4
Format profile : Base Media
Codec ID : isom
File size : 4.79 MiB
Duration : 3mn 26s
Overall bit rate mode : Variable
Overall bit rate : 194 Kbps
Encoded date : UTC 2014-09-12 12:08:49
Tagged date : UTC 2014-09-12 12:08:49

Video
ID : 1
Format : AVC
Format/Info : Advanced Video Codec
Format profile : [email protected]
Format settings, CABAC : No
Format settings, ReFrames : 3 frames
Codec ID : avc1
Codec ID/Info : Advanced Video Coding
Duration : 3mn 26s
Bit rate : 131 Kbps
Maximum bit rate : 481 Kbps
Width : 640 pixels
Height : 360 pixels
Display aspect ratio : 16:9
Frame rate mode : Constant
Frame rate : 20.000 fps
Color space : YUV
Chroma subsampling : 4:2:0
Bit depth : 8 bits
Scan type : Progressive
Bits/(Pixel*Frame) : 0.028
Stream size : 3.23 MiB (67%)
Writing library : Zencoder Video Encoding System
Encoded date : UTC 2014-09-12 12:08:31
Tagged date : UTC 2014-09-12 12:08:49

Audio
ID : 2
Format : AAC
Format/Info : Advanced Audio Codec
Format profile : LC
Codec ID : 40
Duration : 3mn 26s
Bit rate mode : Variable
Bit rate : 61.1 Kbps
Maximum bit rate : 75.0 Kbps
Channel(s) : 2 channels
Channel positions : Front: L R
Sampling rate : 44.1 KHz
Compression mode : Lossy
Stream size : 1.51 MiB (31%)
Encoded date : UTC 2014-09-12 12:08:49
Tagged date : UTC 2014-09-12 12:08:49
Screenshots



For more, Visit my
download:

Learn.Wi.fi.Hacking.or.Penetration.Testing.From.Scratch.part1.rar

Learn.Wi.fi.Hacking.or.Penetration.Testing.From.Scratch.part2.rar

Learn.Wi.fi.Hacking.or.Penetration.Testing.From.Scratch.part3.rar

Learn.Wi.fi.Hacking.or.Penetration.Testing.From.Scratch.part4.rar

Udemy: Learn Wi-fi Hacking/Penetration Testing From Scratch

Related books

Advanced Penetration Testing