Navigation
/ / Kelbyone - Photographing the Moon, Stars and Milky Way with Jennifer Wu

Kelbyone - Photographing the Moon, Stars and Milky Way with Jennifer Wu

Kelbyone - Photographing the Moon, Stars and Milky WayWEBRip | English | MP4 | 1280 x 720 | AVC ~2670 kbps | AAC ~192 Kbps | 48.0 KHz | 2 channels | 1h 14m | 1.43 GBGenre: eLearning Video / Photographing
Join Jennifer Wu, a Canon Explorer of Light, as she guides you through everything you need to know to start photographing stars and the night sky. Landscape photography doesn’t end when the sun goes down! Join Jennifer Wu, a Canon Explorer of Light, as she guides you through everything you need to know to start photographing stars and the night sky. You’ll learn about the equipment you need to capture the scene, how to research your subjects, the importance of scouting your location, the key camera settings, how to post process your photographs, and so much more!include:
Lesson 1: Introduction (Duration 01:42)
Lesson 2: Equipment (Duration 14:05)
Lesson 3: Finding the Milky Way and the Moon (Duration 08:14)
Lesson 4: Camera Settings (Duration 10:37)
Lesson 5: Focusing (Duration 05:29)
Lesson 6: Scouting Locations (Duration 02:40)
Lesson 7: Composition (Duration 10:12)
Lesson 8: Photographing the Moon (Duration 06:19)
Lesson 9: Painting with Light (Duration 06:37)
Lesson 10: Post Processing (Duration 03:56)
Lesson 11: Blending Multiple Photos Together (Duration 01:30)
Lesson 12: Time-lapse Photography (Duration 03:12)

also You can look my other last:
Photography-posts


MediaInfo: General
Complete name : 006.Scouting Locations.MP4
Format : MPEG-4
Format profile : Base Media
Codec ID : isom
File size : 54.8 MiB
Duration : 2mn 40s
Overall bit rate mode : Variable
Overall bit rate : 2 867 Kbps
Encoded date : UTC 2014-03-17 19:42:09
Tagged date : UTC 2014-03-17 19:42:09
Writing application : Lavf53.32.100
Copyright : kelbymediagroup.com

Video
ID : 1
Format : AVC
Format/Info : Advanced Video Codec
Format profile : [email protected]
Format settings, CABAC : Yes
Format settings, ReFrames : 4 frames
Codec ID : avc1
Codec ID/Info : Advanced Video Coding
Duration : 2mn 40s
Bit rate : 2 671 Kbps
Nominal bit rate : 2 500 Kbps
Width : 1 280 pixels
Height : 720 pixels
Display aspect ratio : 16:9
Frame rate mode : Constant
Frame rate : 29.970 fps
Color space : YUV
Chroma subsampling : 4:2:0
Bit depth : 8 bits
Scan type : Progressive
Bits/(Pixel*Frame) : 0.097
Stream size : 51.0 MiB (93%)
Writing library : x264 core 136
Encoding settings : cabac=1 / ref=1 / deblock=1:0:0 / analyse=0x3:0x113 / me=hex / subme=2 / psy=1 / psy_rd=1.00:0.00 / mixed_ref=0 / me_range=16 / chroma_me=1 / trellis=0 / 8x8dct=1 / cqm=0 / deadzone=21,11 / fast_pskip=1 / chroma_qp_offset=0 / threads=48 / lookahead_threads=5 / sliced_threads=0 / nr=0 / decimate=1 / interlaced=0 / bluray_compat=0 / constrained_intra=0 / bframes=3 / b_pyramid=2 / b_adapt=1 / b_bias=0 / direct=1 / weightb=1 / open_gop=0 / weightp=1 / keyint=300 / keyint_min=29 / scenecut=40 / intra_refresh=0 / rc_lookahead=10 / rc=abr / mbtree=1 / bitrate=2500 / ratetol=1.0 / qcomp=0.60 / qpmin=0 / qpmax=69 / qpstep=4 / ip_ratio=1.40 / aq=1:1.00
Language : English
Encoded date : UTC 2014-03-17 19:42:09
Tagged date : UTC 2014-03-17 19:42:09

Audio
ID : 2
Format : AAC
Format/Info : Advanced Audio Codec
Format profile : LC
Codec ID : 40
Duration : 2mn 40s
Bit rate mode : Variable
Bit rate : 192 Kbps
Channel(s) : 2 channels
Channel positions : Front: L R
Sampling rate : 48.0 KHz
Compression mode : Lossy
Stream size : 3.62 MiB (7%)
Encoded date : UTC 2014-03-17 19:42:09
Tagged date : UTC 2014-03-17 19:42:09
Screenshots






For more Exclusive material, Visit my
Download

http://www.nitroflare.com/view/9E5B2C16A459A65/Photographing.the.Moon.Stars.and.Milky.Way.part1.rar

http://www.nitroflare.com/view/37F24BAA4A4F94D/Photographing.the.Moon.Stars.and.Milky.Way.part2.rar

http://www.nitroflare.com/view/247A0C98DB2340D/Photographing.the.Moon.Stars.and.Milky.Way.part3.rar

http://www.nitroflare.com/view/7503EDC3BADDCCE/Photographing.the.Moon.Stars.and.Milky.Way.part4.rar

http://www.nitroflare.com/view/252F42EBE07F7F6/Photographing.the.Moon.Stars.and.Milky.Way.part5.rar

http://www.nitroflare.com/view/53F6BF930599CE3/Photographing.the.Moon.Stars.and.Milky.Way.part6.rar

http://www.nitroflare.com/view/0BEEC01054852FB/Photographing.the.Moon.Stars.and.Milky.Way.part7.rar

http://www.nitroflare.com/view/90B1D6F2C4CD7AA/Photographing.the.Moon.Stars.and.Milky.Way.part8.rar

Kelbyone - Photographing the Moon, Stars and Milky Way with Jennifer Wu

Related books

Peter Hurley - The Art of the Edit

Chasses Au Pigeon

Udemy: AJAX Development (2015)