Navigation
/ / Kelbyone - Photoshop CC Basics for Photographers

Kelbyone - Photoshop CC Basics for Photographers

Kelbyone - Photoshop CC Basics for PhotographersWEBRip | English | MP4 | 1280 x 720 | AVC ~1359 kbps | AAC ~192 Kbps | 48.0 KHz | 2 channels | 2h 23m | 1.89 GBGenre: eLearning Video / Photographing
If you’re a photographer just starting out with Photoshop it can be a little overwhelming at how many choices there are for editing your photos. In this class, Matt Kloskowski, cuts through all of the techie stuff and overwhelming amount of choices. Instead, he just gives you the tools you need to know to get started in Photoshop. Tools that, as a beginner, you’ll find you continue to use even as you get better in Photoshop. By the time you’re done, you’ll be confident in your skills and ready to start editing like a pro.Course Lessons:
Lesson 1: Introduction (Duration 01:20)
Lesson 2: Interface (Duration 10:54)
Lesson 3: Layers (Duration 08:55)
Lesson 4: More Layers (Duration 08:29)
Lesson 5: Blending and Blend Modes (Duration 11:46)
Lesson 6: Layer Masks (Duration 08:14)
Lesson 7: File Formats (Duration 06:29)
Lesson 8: Image Size and Resolution (Duration 13:37)
Lesson 9: Adjusting Your Image with Camera Raw (Duration 13:10)
Lesson 10: Adjusting Your Image with Selective Tools (Duration 07:48)
Lesson 11: Selection Basics (Duration 10:30)
Lesson 12: Retouching Basics (Duration 09:59)
Lesson 13: Cropping and Straightening (Duration 06:27)
Lesson 14: Sharpening (Duration 07:03)
Lesson 15: Text (Duration 05:02)
Lesson 16: Printing (Duration 07:04)
Lesson 17: Customizing Photoshop (Duration 06:30)

also You can look my other last:
Photography-posts


MediaInfo: General
Complete name : 005.Blending and Blend Modes.mp4
Format : MPEG-4
Format profile : Base Media
Codec ID : isom
File size : 131 MiB
Duration : 11mn 44s
Overall bit rate : 1 556 Kbps
Encoded date : UTC 2014-01-31 08:48:23
Tagged date : UTC 2014-01-31 08:48:23
Writing application : Lavf53.32.100
Copyright : kelbymediagroup.com

Video
ID : 1
Format : AVC
Format/Info : Advanced Video Codec
Format profile : High@L3.1
Format settings, CABAC : Yes
Format settings, ReFrames : 4 frames
Codec ID : avc1
Codec ID/Info : Advanced Video Coding
Duration : 11mn 44s
Bit rate : 1 359 Kbps
Nominal bit rate : 2 500 Kbps
Width : 1 280 pixels
Height : 720 pixels
Display aspect ratio : 16:9
Frame rate mode : Constant
Frame rate : 29.970 fps
Color space : YUV
Chroma subsampling : 4:2:0
Bit depth : 8 bits
Scan type : Progressive
Bits/(Pixel*Frame) : 0.049
Stream size : 114 MiB (87%)
Writing library : x264 core 136
Encoding settings : cabac=1 / ref=1 / deblock=1:0:0 / analyse=0x3:0x113 / me=hex / subme=2 / psy=1 / psy_rd=1.00:0.00 / mixed_ref=0 / me_range=16 / chroma_me=1 / trellis=0 / 8x8dct=1 / cqm=0 / deadzone=21,11 / fast_pskip=1 / chroma_qp_offset=0 / threads=48 / lookahead_threads=5 / sliced_threads=0 / nr=0 / decimate=1 / interlaced=0 / bluray_compat=0 / constrained_intra=0 / bframes=3 / b_pyramid=2 / b_adapt=1 / b_bias=0 / direct=1 / weightb=1 / open_gop=0 / weightp=1 / keyint=300 / keyint_min=29 / scenecut=40 / intra_refresh=0 / rc_lookahead=10 / rc=abr / mbtree=1 / bitrate=2500 / ratetol=1.0 / qcomp=0.60 / qpmin=0 / qpmax=69 / qpstep=4 / ip_ratio=1.40 / aq=1:1.00
Language : English
Encoded date : UTC 2014-01-31 08:48:23
Tagged date : UTC 2014-01-31 08:48:23

Audio
ID : 2
Format : AAC
Format/Info : Advanced Audio Codec
Format profile : LC
Codec ID : 40
Duration : 11mn 44s
Bit rate mode : Constant
Bit rate : 192 Kbps
Channel(s) : 2 channels
Channel positions : Front: L R
Sampling rate : 48.0 KHz
Compression mode : Lossy
Stream size : 15.9 MiB (12%)
Encoded date : UTC 2014-01-31 08:48:23
Tagged date : UTC 2014-01-31 08:48:23
Screenshots



For more Exclusive material, Visit my
Download

http://www.nitroflare.com/view/BBB85690C63D1BB/kelbyone.Photoshop.CC.Basics.for.Photographers.part01.rar

http://www.nitroflare.com/view/D0C3570BCCFC0AB/kelbyone.Photoshop.CC.Basics.for.Photographers.part02.rar

http://www.nitroflare.com/view/7D52D38D37F25F8/kelbyone.Photoshop.CC.Basics.for.Photographers.part03.rar

http://www.nitroflare.com/view/A008905287CF985/kelbyone.Photoshop.CC.Basics.for.Photographers.part04.rar

http://www.nitroflare.com/view/D7633A20B0D47B6/kelbyone.Photoshop.CC.Basics.for.Photographers.part05.rar

http://www.nitroflare.com/view/050365DFFF519AA/kelbyone.Photoshop.CC.Basics.for.Photographers.part06.rar

http://www.nitroflare.com/view/072F2815B60C5E5/kelbyone.Photoshop.CC.Basics.for.Photographers.part07.rar

http://www.nitroflare.com/view/6E6E7C5B7901FB3/kelbyone.Photoshop.CC.Basics.for.Photographers.part08.rar

http://www.nitroflare.com/view/2317B0F3F39C456/kelbyone.Photoshop.CC.Basics.for.Photographers.part09.rar

http://www.nitroflare.com/view/B7AF4FCD04D7FFA/kelbyone.Photoshop.CC.Basics.for.Photographers.part10.rar

Kelbyone - Photoshop CC Basics for Photographers

Related books

Peter Hurley - The Art of the Edit