Navigation
/ / Kelbyone - Social Media for Photographers with Colby Brown

Kelbyone - Social Media for Photographers with Colby Brown

Kelbyone - Social Media for PhotographersWEBRip | English | MP4 | 1280 x 720 | AVC ~2500 kbps | AAC ~192 Kbps | 48.0 KHz | 2 channels | 01:31:21 | 1.38 GBGenre: eLearning Video / Photographing
Take your social media efforts to new heights with rock solid advice from Colby Brown, a landscape, travel, and humanitarian photographer, who has become one of the most followed photographers on the Internet. In this class Colby gets you up to speed on the hottest social media networks for photographers and explains not only why they are important, but how you can start developing a social media strategy that is smart, efficient, and enables you to attain your goals.Course Lessons:
Lesson 1: Introduction (Duration 04:20)
Lesson 2: Dealing with Noise (Duration 06:08)
Lesson 3: Facebook (Duration 12:32)
Lesson 4: Google+ (Duration 10:30)
Lesson 5: Twitter, Instagram, and Pinterest (Duration 11:32)
Lesson 6: LinkedIn, Flickr, 500px, and Stipple (Duration 08:09)
Lesson 7: Developing a Strategy (Duration 08:19)
Lesson 8: Social Media Q&A (Duration 12:09)

also You can look my other last:
Photography-posts


MediaInfo: General
Complete name : 007.Developing a Strategy.mp4
Format : MPEG-4
Format profile : Base Media
Codec ID : isom
File size : 160 MiB
Duration : 8mn 17s
Overall bit rate mode : Variable
Overall bit rate : 2 700 Kbps
Encoded date : UTC 2013-12-26 21:42:21
Tagged date : UTC 2013-12-26 21:42:21
Writing application : Lavf53.32.100
Copyright : kelbymediagroup.com

Video
ID : 1
Format : AVC
Format/Info : Advanced Video Codec
Format profile : [email protected]
Format settings, CABAC : Yes
Format settings, ReFrames : 4 frames
Codec ID : avc1
Codec ID/Info : Advanced Video Coding
Duration : 8mn 16s
Bit rate : 2 500 Kbps
Width : 1 280 pixels
Height : 720 pixels
Display aspect ratio : 16:9
Frame rate mode : Constant
Frame rate : 29.970 fps
Color space : YUV
Chroma subsampling : 4:2:0
Bit depth : 8 bits
Scan type : Progressive
Bits/(Pixel*Frame) : 0.091
Stream size : 148 MiB (93%)
Writing library : x264 core 136
Encoding settings : cabac=1 / ref=1 / deblock=1:0:0 / analyse=0x3:0x113 / me=hex / subme=2 / psy=1 / psy_rd=1.00:0.00 / mixed_ref=0 / me_range=16 / chroma_me=1 / trellis=0 / 8x8dct=1 / cqm=0 / deadzone=21,11 / fast_pskip=1 / chroma_qp_offset=0 / threads=48 / lookahead_threads=5 / sliced_threads=0 / nr=0 / decimate=1 / interlaced=0 / bluray_compat=0 / constrained_intra=0 / bframes=3 / b_pyramid=2 / b_adapt=1 / b_bias=0 / direct=1 / weightb=1 / open_gop=0 / weightp=1 / keyint=300 / keyint_min=29 / scenecut=40 / intra_refresh=0 / rc_lookahead=10 / rc=abr / mbtree=1 / bitrate=2500 / ratetol=1.0 / qcomp=0.60 / qpmin=0 / qpmax=69 / qpstep=4 / ip_ratio=1.40 / aq=1:1.00
Language : English
Encoded date : UTC 2013-12-26 21:42:21
Tagged date : UTC 2013-12-26 21:42:21

Audio
ID : 2
Format : AAC
Format/Info : Advanced Audio Codec
Format profile : LC
Codec ID : 40
Duration : 8mn 17s
Bit rate mode : Variable
Bit rate : 192 Kbps
Channel(s) : 2 channels
Channel positions : Front: L R
Sampling rate : 48.0 KHz
Compression mode : Lossy
Stream size : 11.2 MiB (7%)
Encoded date : UTC 2013-12-26 21:42:21
Tagged date : UTC 2013-12-26 21:42:21
Screenshots



For more Exclusive material, Visit my
Download

http://www.nitroflare.com/view/3ABF75F6DBDA41F/kelbyone.Social.Media.for.Photographers.part1.rar

http://www.nitroflare.com/view/C42E016FF74EA4B/kelbyone.Social.Media.for.Photographers.part2.rar

http://www.nitroflare.com/view/FBF9491AC7029C0/kelbyone.Social.Media.for.Photographers.part3.rar

http://www.nitroflare.com/view/FED24CE68BB4581/kelbyone.Social.Media.for.Photographers.part4.rar

http://www.nitroflare.com/view/C801403DBCDEE43/kelbyone.Social.Media.for.Photographers.part5.rar

http://www.nitroflare.com/view/4CDED4FFA38B7BD/kelbyone.Social.Media.for.Photographers.part6.rar

http://www.nitroflare.com/view/FE3712FFBBF8A87/kelbyone.Social.Media.for.Photographers.part7.rar

http://www.nitroflare.com/view/07AE08FFFC01B4F/kelbyone.Social.Media.for.Photographers.part8.rar

Kelbyone - Social Media for Photographers with Colby Brown

Related books

Peter Hurley - The Art of the Edit

Chasses Au Pigeon

Udemy: AJAX Development (2015)