Navigation
/ / Persuasive UX: Creating Credibility

Persuasive UX: Creating Credibility

Persuasive UX: Creating CredibilityWEBRip | English | MP4 | 1280 x 720 | AVC ~831 kbps | 29.970 fps
AAC | 160 Kbps | 44.1 KHz | 2 channels | 20 minutes | 172.3 MBGenre: Video Tutorial / Web design
Credibility is currency with online audiences. By knowing how concepts like social proof ("if other people do it, so can I") and authority affect your audience or customers, you can build your credibility and influence their behavior. Dive into this course to learn more, and start putting these concepts to work for you.Contents:
Introduction
Welcome

Introduction
Welcome

1. Using Credibility for Persuasion
Social proof
Reciprocation
Authority
Smart defaults

Conclusion
Next steps

MediaInfo: General
Complete name : 02_02-Reciprocation.mp4
Format : MPEG-4
Format profile : Base Media / Version 2
Codec ID : mp42
File size : 26.2 MiB
Duration : 3mn 40s
Overall bit rate mode : Variable
Overall bit rate : 996 Kbps
Encoded date : UTC 2014-05-02 18:50:22
Tagged date : UTC 2014-05-02 18:50:22
Writing library : Apple QuickTime
Copyright : lynda.com

Video
ID : 1
Format : AVC
Format/Info : Advanced Video Codec
Format profile : Main@L3.1
Format settings, CABAC : Yes
Format settings, ReFrames : 3 frames
Codec ID : avc1
Codec ID/Info : Advanced Video Coding
Duration : 3mn 40s
Bit rate : 831 Kbps
Width : 1 280 pixels
Height : 720 pixels
Display aspect ratio : 16:9
Frame rate mode : Constant
Frame rate : 29.970 fps
Standard : NTSC
Color space : YUV
Chroma subsampling : 4:2:0
Bit depth : 8 bits
Scan type : Progressive
Bits/(Pixel*Frame) : 0.030
Stream size : 21.8 MiB (83%)
Language : English
Encoded date : UTC 2014-05-02 18:50:22
Tagged date : UTC 2014-05-02 18:50:22

Audio
ID : 2
Format : AAC
Format/Info : Advanced Audio Codec
Format profile : LC
Codec ID : 40
Duration : 3mn 40s
Bit rate mode : Variable
Bit rate : 160 Kbps
Maximum bit rate : 162 Kbps
Channel(s) : 2 channels
Channel positions : Front: L R
Sampling rate : 44.1 KHz
Compression mode : Lossy
Stream size : 4.20 MiB (16%)
Language : English
Encoded date : UTC 2014-05-02 18:50:22
Tagged date : UTC 2014-05-02 18:50:22
Screenshots



For more Exclusive material, Visit my
download

http://www.nitroflare.com/view/F2684D13A96DFB8/L.Persuasive.UX.Creating.Credibility.part1.rar

http://www.nitroflare.com/view/C519F83F3FECEB9/L.Persuasive.UX.Creating.Credibility.part2.rar

Persuasive UX: Creating Credibility

Related books

UX Design Tools: Photoshop

Tutsplus - Advanced C# (2014)