Navigation
/ / Planning a Web Design Portfolio: Getting a Job

Planning a Web Design Portfolio: Getting a Job

Planning a Web Design Portfolio: Getting a JobWEBRip | English | MP4 | 1280 x 720 | AVC ~933 kbps | 29.970 fps
AAC | 160 Kbps | 48.0 KHz | 2 channels | 00:51:24 | 425 MBGenre: Video Tutorial / Web Design
For web designers and other creative professionals, a great portfolio can make the difference between landing the job and getting passed over. In this course, you'll explore the five essential components of an outstanding portfolio, and find out how to frame your projects in ways that will appeal to prospective employers. Employers looking to fill a job opening want designers who can solve real-world design challenges, be productive and creative team members, and hit the ground running. This course will help you plan the conceptual structure of your portfolio to make these kinds of skills stand out. So join web design entrepreneur Lauren Bacon as she explains how to gear your portfolio to land the perfect web design job.* Conveying your personality through your portfolio
* Highlighting your problem-solving skills
* Demonstrating range
* Conveying your skill level
* Avoiding pitfalls

also You can look my other last:
Web design-posts


MediaInfo: General
Complete name : 172854_05_02_LA30_Roles.mp4
Format : MPEG-4
Format profile : Base Media / Version 2
Codec ID : mp42
File size : 23.7 MiB
Duration : 3mn 0s
Overall bit rate : 1 099 Kbps
Encoded date : UTC 2014-10-13 14:22:13
Tagged date : UTC 2014-10-13 14:22:13

Video
ID : 1
Format : AVC
Format/Info : Advanced Video Codec
Format profile : [email protected]
Format settings, CABAC : Yes
Format settings, ReFrames : 5 frames
Codec ID : avc1
Codec ID/Info : Advanced Video Coding
Duration : 3mn 0s
Bit rate : 933 Kbps
Maximum bit rate : 3 570 Kbps
Width : 1 280 pixels
Height : 720 pixels
Display aspect ratio : 16:9
Frame rate mode : Constant
Frame rate : 29.970 fps
Color space : YUV
Chroma subsampling : 4:2:0
Bit depth : 8 bits
Scan type : Progressive
Bits/(Pixel*Frame) : 0.034
Stream size : 20.1 MiB (85%)
Title : Telestream Inc. Dib Library - ReleaseVantage 2014.59.138974
Writing library : x264 core 129
Encoding settings : cabac=1 / ref=5 / deblock=1:0:0 / analyse=0x1:0x111 / me=hex / subme=7 / psy=1 / psy_rd=1.00:0.00 / mixed_ref=1 / me_range=16 / chroma_me=1 / trellis=1 / 8x8dct=0 / cqm=0 / deadzone=21,11 / fast_pskip=1 / chroma_qp_offset=-2 / threads=14 / lookahead_threads=2 / sliced_threads=0 / nr=0 / decimate=1 / interlaced=0 / bluray_compat=0 / constrained_intra=0 / bframes=1 / b_pyramid=0 / b_adapt=1 / b_bias=0 / direct=1 / weightb=1 / open_gop=0 / weightp=2 / keyint=300 / keyint_min=29 / scenecut=60 / intra_refresh=0 / rc_lookahead=55 / rc=crf / mbtree=1 / crf=21.0 / qcomp=0.60 / qpmin=0 / qpmax=69 / qpstep=4 / vbv_maxrate=1490 / vbv_bufsize=14900 / crf_max=0.0 / nal_hrd=none / ip_ratio=3.00 / aq=1:1.00
Language : English
Encoded date : UTC 2014-10-13 14:22:13
Tagged date : UTC 2014-10-13 14:22:13

Audio
ID : 2
Format : AAC
Format/Info : Advanced Audio Codec
Format profile : LC
Codec ID : 40
Duration : 3mn 0s
Bit rate mode : Constant
Bit rate : 160 Kbps
Nominal bit rate : 128 Kbps
Channel(s) : 2 channels
Channel positions : Front: L R
Sampling rate : 48.0 KHz
Compression mode : Lossy
Stream size : 3.44 MiB (15%)
Title : Telestream Inc. Dib Library - ReleaseVantage 2014.59.138974
Language : English
Encoded date : UTC 2014-10-13 14:22:13
Tagged date : UTC 2014-10-13 14:22:13
Screenshots



For more Exclusive material, Visit my
Download

Planning.a.Web.Design.Portfolio.Getting.a.Job.part1.rar

Planning.a.Web.Design.Portfolio.Getting.a.Job.part2.rar

Planning.a.Web.Design.Portfolio.Getting.a.Job.part3.rar

Planning.a.Web.Design.Portfolio.Getting.a.Job.part4.rar

Planning.a.Web.Design.Portfolio.Getting.a.Job.part5.rar

Planning a Web Design Portfolio: Getting a Job

Related books

u-he ACE Any Cable Everywhere

Udemy: AJAX Development (2015)

Introduction To Transact-SQL

Live cloud

This week top files