Navigation
/ / The Evolution of My Gear

The Evolution of My Gear

The Evolution of My GearDVDRip | English | MP4 | 1280 x 720 | AVC ~1800 kbps | AAC ~64 Kbps | 44.1 KHz | 1 channel | 1h 54mn | 1.49 GBGenre: eLearning Video / Photographing
Join Zack Arias at his Atlanta studio as he shares the story of his relationship to gear; from where he started to how that relationship has evolved over the years based on his skills, assignments, and needs. Have you ever suffered from G.A.S. (gear acquisition syndrome)? You are not alone! Join Zack Arias at his Atlanta studio as he shares the story of his relationship to gear; from where he started to how that relationship has evolved over the years based on his skills, assignments, and needs. It is a story we can all relate to, whether beginner or seasoned pro. In the end, it all boils down to camera, lens, and light.Course Lessons:
Lesson 1: Introduction (Duration 04:58)
Lesson 2: Background (Duration 08:34)
Lesson 3: DSLR Kit (Duration 10:57)
Lesson 4: Prime vs. Zoom Lenses (Duration 08:41)
Lesson 5: Medium Format Kit (Duration 11:38)
Lesson 6: Fuji Kit (Duration 15:06)
Lesson 7: Hot Shoe Flash (Duration 06:11)
Lesson 8: Big Light Kit (Duration 07:25)
Lesson 9: Modifiers: Part 1 (Duration 11:08)
Lesson 10: Modifiers: Part 2 (Duration 12:43)
Lesson 11: Packing it Up (Duration 08:19)
Lesson 12: Conclusion (Duration 09:03)

also You can look my other last:
Photography-posts


MediaInfo: General
Complete name : 009.Modifiers- Part 1.mp4
Format : MPEG-4
Format profile : Base Media
Codec ID : isom
File size : 149 MiB
Duration : 11mn 6s
Overall bit rate : 1 869 Kbps
Encoded date : UTC 2013-08-31 04:45:13
Tagged date : UTC 2013-08-31 04:45:13
Writing application : Lavf53.32.100
Copyright : kelbymediagroup.com

Video
ID : 1
Format : AVC
Format/Info : Advanced Video Codec
Format profile : Main@L3.0
Format settings, CABAC : Yes
Format settings, ReFrames : 3 frames
Codec ID : avc1
Codec ID/Info : Advanced Video Coding
Duration : 11mn 6s
Bit rate : 1 800 Kbps
Width : 1 280 pixels
Height : 720 pixels
Display aspect ratio : 16:9
Frame rate mode : Constant
Frame rate : 29.970 fps
Color space : YUV
Chroma subsampling : 4:2:0
Bit depth : 8 bits
Scan type : Progressive
Bits/(Pixel*Frame) : 0.065
Stream size : 143 MiB (96%)
Writing library : x264 core 120
Encoding settings : cabac=1 / ref=3 / deblock=1:0:0 / analyse=0x1:0x111 / me=hex / subme=6 / psy=0 / mixed_ref=0 / me_range=16 / chroma_me=1 / trellis=1 / 8x8dct=0 / cqm=0 / deadzone=21,11 / fast_pskip=1 / chroma_qp_offset=0 / threads=48 / sliced_threads=0 / nr=0 / decimate=1 / interlaced=0 / bluray_compat=0 / constrained_intra=0 / bframes=3 / b_pyramid=0 / b_adapt=1 / b_bias=0 / direct=1 / weightb=0 / open_gop=0 / weightp=2 / keyint=150 / keyint_min=76 / scenecut=0 / intra_refresh=0 / rc=2pass / mbtree=0 / bitrate=1800 / ratetol=1.0 / qcomp=0.60 / qpmin=10 / qpmax=51 / qpstep=4 / cplxblur=20.0 / qblur=0.5 / ip_ratio=1.40 / pb_ratio=1.30 / aq=1:1.00
Language : English
Encoded date : UTC 2013-08-31 04:45:13
Tagged date : UTC 2013-08-31 04:45:13

Audio
ID : 2
Format : AAC
Format/Info : Advanced Audio Codec
Format profile : LC
Codec ID : 40
Duration : 11mn 6s
Bit rate mode : Constant
Bit rate : 64.0 Kbps
Channel(s) : 1 channel
Channel positions : Front: C
Sampling rate : 44.1 KHz
Compression mode : Lossy
Stream size : 5.08 MiB (3%)
Language : English
Encoded date : UTC 2013-08-31 04:45:13
Tagged date : UTC 2013-08-31 04:45:13
Screenshots




For more Exclusive material, Visit my
Download

kelbyone.The.Evolution.of.My.Gear.part1.rar

kelbyone.The.Evolution.of.My.Gear.part2.rar

kelbyone.The.Evolution.of.My.Gear.part3.rar

kelbyone.The.Evolution.of.My.Gear.part4.rar

kelbyone.The.Evolution.of.My.Gear.part5.rar

kelbyone.The.Evolution.of.My.Gear.part6.rar

kelbyone.The.Evolution.of.My.Gear.part7.rar

The Evolution of My Gear

Related books

Peter Hurley - The Art of the Edit

Chasses Au Pigeon

Udemy: AJAX Development (2015)