Navigation
/ / Canadian Alpine Ski Team CS CF - World Cup 07/08

Canadian Alpine Ski Team CS CF - World Cup 07/08

Canadian Alpine Ski Team CS CF - World Cup 07/08DVD5 | English, French | VIDEO_TS | 720 x 480 | MPEG2 ~4012 kbps | 29.970 fps
AC-3 | 192 kbps | 48.0 KHz | 2 channels | Subs: French | 00:57:45 | 3.01 GBGenre: eLearning Video / Skiing, Snow Pro, Sport
Excellent training film from the Canadian Federation of ski coaches (CSCF - Canadian Ski Coaches Federation). Contains various phases training skiers from warm-up exercises and ending passages of the downhill and giant slalom and slalom World Cup top athletes and the Canadian national team. The film can be used as one of their training manuals for teaching in the sections of mountain skiing, as well as for self-study and perfection of athletes skiers. MediaInfo General
Complete name : VTS_02_1.VOB
Format : MPEG-PS
File size : 771 MiB
Duration : 25mn 8s
Overall bit rate mode : Variable
Overall bit rate : 4 290 Kbps

Video
ID : 224 (0xE0)
Format : MPEG Video
Format version : Version 2
Format profile : Main@Main
Format settings, BVOP : Yes
Format settings, Matrix : Default
Duration : 25mn 8s
Bit rate mode : Variable
Bit rate : 4 012 Kbps
Maximum bit rate : 9 000 Kbps
Width : 720 pixels
Height : 480 pixels
Display aspect ratio : 16:9
Frame rate : 29.970 fps
Standard : NTSC
Color space : YUV
Chroma subsampling : 4:2:0
Bit depth : 8 bits
Scan type : Interlaced
Scan order : Bottom Field First
Compression mode : Lossy
Bits/(Pixel*Frame) : 0.387
Stream size : 721 MiB (94%)

Audio
ID : 189 (0xBD)-128 (0x80)
Format : AC-3
Format/Info : Audio Coding 3
Mode extension : CM (complete main)
Muxing mode : DVD-Video
Duration : 25mn 8s
Bit rate mode : Constant
Bit rate : 192 Kbps
Channel(s) : 2 channels
Channel positions : Front: L R
Sampling rate : 48.0 KHz
Bit depth : 16 bits
Compression mode : Lossy
Delay relative to video : -66ms
Stream size : 34.5 MiB (4%)

Menu

ScreenShots






For more Exclusive material, Visit my
Download

http://www.nitroflare.com/view/CF3D61EE0864477/cscf_wc_08.part1.rar

http://www.nitroflare.com/view/1BF419D5E2F89E1/cscf_wc_08.part2.rar

http://www.nitroflare.com/view/D390948AB242C8A/cscf_wc_08.part3.rar

http://www.nitroflare.com/view/65BBEDE18C95361/cscf_wc_08.part4.rar

http://www.nitroflare.com/view/3651F99A4A768F0/cscf_wc_08.part5.rar

http://www.nitroflare.com/view/BC2CB0D48E9B110/cscf_wc_08.part6.rar

http://www.nitroflare.com/view/BFD0B47AD7DE5D9/cscf_wc_08.part7.rar

Canadian Alpine Ski Team CS CF - World Cup 07/08

Related books

Jillian Michaels - 6 Week: Six-Pack

That's How We Build a House